<?xml version="1.0" standalone="no"?>
<!DOCTYPE svg PUBLIC "-//W3C//DTD SVG 1.1//EN" "http://www.w3.org/Graphics/SVG/1.1/DTD/svg11.dtd" >
<svg xmlns="http://www.w3.org/2000/svg" xmlns:xlink="http://www.w3.org/1999/xlink" version="1.1">
<metadata>
Created by FontForge 20170731 at Wed Jan 25 12:10:56 2023
 By Aleksey,,,
Copyright (c) 2015 by Mattox Shuler. All rights reserved.
</metadata>
<defs>
<font id="Termina-Demi" horiz-adv-x="1671" >
  <font-face 
    font-family="Termina Test Demi"
    font-weight="600"
    font-stretch="normal"
    units-per-em="2048"
    panose-1="0 0 7 0 0 0 0 0 0 0"
    ascent="1638"
    descent="-410"
    x-height="1128"
    cap-height="1434"
    bbox="-176 -453 2503 1585"
    underline-thickness="102"
    underline-position="-307"
    unicode-range="U+0020-007A"
  />
<missing-glyph horiz-adv-x="1034" 
 />
    <glyph glyph-name=".notdef" horiz-adv-x="1034" 
 />
    <glyph glyph-name=".null" horiz-adv-x="0" 
 />
    <glyph glyph-name="nonmarkingreturn" horiz-adv-x="682" 
 />
    <glyph glyph-name="space" unicode=" " horiz-adv-x="567" 
 />
    <glyph glyph-name="comma" unicode="," horiz-adv-x="612" 
d="M301 317q90 0 145.5 -60.5t55.5 -150.5q0 -111 -68.5 -237.5t-193.5 -210.5l-72 90q75 67 115.5 122t54.5 118q-13 -13 -49 -13q-74 0 -126 49t-52 123q0 71 54 120.5t136 49.5z" />
    <glyph glyph-name="hyphen" unicode="-" horiz-adv-x="1230" 
d="M1085 485h-940v267h940v-267z" />
    <glyph glyph-name="period" unicode="." horiz-adv-x="606" 
d="M303 -25q-86 0 -140 48t-54 122q0 73 54.5 122.5t139.5 49.5q84 0 138.5 -49.5t54.5 -122.5q0 -74 -54.5 -122t-138.5 -48z" />
    <glyph glyph-name="zero" unicode="0" horiz-adv-x="1943" 
d="M971 -45q-407 0 -639 202.5t-232 559.5t232 559.5t639 202.5q408 0 640 -202.5t232 -559.5t-232 -559.5t-640 -202.5zM973 238q253 0 394.5 123t141.5 356t-141.5 356t-394.5 123q-254 0 -396.5 -123t-142.5 -356t142.5 -356t396.5 -123z" />
    <glyph glyph-name="one" unicode="1" horiz-adv-x="1007" 
d="M487 0v1071q-160 -116 -434 -162v277q134 20 271.5 87.5t242.5 160.5h248v-1434h-328z" />
    <glyph glyph-name="two" unicode="2" horiz-adv-x="1685" 
d="M111 1141q107 149 305 242.5t440 93.5q104 0 203.5 -17t189 -52.5t157 -86.5t107 -124.5t39.5 -160.5q0 -90 -40 -164.5t-117.5 -133t-173.5 -103.5t-226 -86q-450 -149 -514 -285h1102v-264h-1503v145q31 200 219.5 365.5t505.5 267.5q215 73 274 101q124 57 139 127
q3 12 3 24q0 59 -55.5 102.5t-139 64t-180.5 20.5q-311 0 -541 -250z" />
    <glyph glyph-name="three" unicode="3" horiz-adv-x="1703" 
d="M317 446q76 -110 210.5 -168.5t314.5 -58.5q84 0 155.5 11t131.5 35t94 66t34 99q0 47 -23 81.5t-61.5 55.5t-97.5 34t-121 17.5t-143 4.5h-213v241h213q82 0 151.5 9.5t127.5 29t91 55t33 82.5q0 48 -33.5 83t-90 54t-120.5 28t-136 9q-177 0 -306 -59.5t-202 -159.5
l-238 158q117 150 308.5 237t437.5 87q143 0 270 -25.5t227 -73.5t158.5 -126t58.5 -175q0 -129 -99 -220.5t-245 -106.5q77 -12 144.5 -37t127 -66t94 -105t34.5 -143q0 -138 -101.5 -240t-270.5 -152t-382 -50q-260 0 -464.5 91t-328.5 249z" />
    <glyph glyph-name="four" unicode="4" horiz-adv-x="1796" 
d="M1735 555v-254h-291v-301h-320v301h-1085v191l1114 942h291v-879h291zM473 555h653v555z" />
    <glyph glyph-name="five" unicode="5" horiz-adv-x="1712" 
d="M268 451q92 -89 252.5 -155.5t356.5 -66.5q428 0 428 224q0 119 -119.5 176t-333.5 57q-248 0 -477 -94l-242 94l123 748h1235v-263h-987l-60 -366q239 131 527 131q105 0 202.5 -18.5t182.5 -57.5t148 -95.5t99.5 -137.5t36.5 -178q0 -103 -47.5 -191.5t-139.5 -156.5
t-240 -107t-336 -39q-251 0 -457 80.5t-352 224.5z" />
    <glyph glyph-name="six" unicode="6" horiz-adv-x="1820" 
d="M1063 938q97 0 190 -16.5t181.5 -53.5t154.5 -90.5t106 -135t40 -179.5q0 -226 -205.5 -367t-562.5 -141q-403 0 -635 205.5t-232 556.5t232 556.5t635 205.5q471 0 723 -246l-195 -191q-192 183 -498 183q-562 0 -565 -502q109 101 278.5 158t352.5 57zM967 209
q203 0 320.5 64.5t117.5 191.5q0 235 -412 235q-144 0 -288.5 -48.5t-245.5 -137.5q93 -305 508 -305z" />
    <glyph glyph-name="seven" unicode="7" horiz-adv-x="1562" 
d="M350 0l776 1159h-1085v275h1485v-215l-801 -1219h-375z" />
    <glyph glyph-name="eight" unicode="8" horiz-adv-x="1820" 
d="M1315 752q76 -11 145 -37t129 -68t95.5 -106.5t35.5 -143.5q0 -137 -103.5 -238t-286 -152.5t-421.5 -51.5t-421 51.5t-285 152.5t-103 238q0 79 35.5 143.5t95 106.5t129 68t146.5 37q-152 15 -251 102.5t-99 220.5q0 129 103 222t271 137.5t379 44.5t379.5 -44.5
t272.5 -137.5t104 -222q0 -133 -99.5 -220t-250.5 -103zM485 1044q0 -50 34 -88t94 -59.5t134 -32t162 -10.5q89 0 163 10.5t134.5 32t94.5 59.5t34 88t-34 88t-94.5 60t-135 32.5t-162.5 10.5t-162 -10.5t-134 -32.5t-94 -60t-34 -88zM909 199q103 0 186.5 12.5t148 37.5
t99.5 68t35 101q0 74 -62.5 123.5t-165.5 71.5t-241 22t-241 -22t-165.5 -71.5t-62.5 -123.5q0 -108 129 -163.5t340 -55.5z" />
    <glyph glyph-name="nine" unicode="9" horiz-adv-x="1820" 
d="M854 1479q403 0 634.5 -205t231.5 -557t-231.5 -557t-634.5 -205q-471 0 -723 246l195 190q191 -182 497 -182q563 0 566 502q-109 -101 -278.5 -158t-352.5 -57q-97 0 -190 16.5t-181.5 53.5t-154.5 90.5t-106 135t-40 179.5q0 226 205.5 367t562.5 141zM416 969
q0 -236 411 -236q143 0 288.5 49t246.5 138q-93 305 -508 305q-203 0 -320.5 -64.5t-117.5 -191.5z" />
    <glyph glyph-name="A" unicode="A" horiz-adv-x="1884" 
d="M1528 0l-154 303h-866l-154 -303h-350l760 1434h358l760 -1434h-354zM643 569h594l-297 584z" />
    <glyph glyph-name="B" unicode="B" horiz-adv-x="1912" 
d="M1419 750q178 -9 290 -101.5t112 -255.5q0 -188 -150 -290.5t-411 -102.5h-1067v1434h985q260 0 410.5 -97.5t150.5 -269.5q0 -129 -83 -218t-237 -99zM516 1176v-324h608q71 0 121 7t89.5 24t59 49.5t19.5 81.5q0 93 -72 127.5t-217 34.5h-608zM1192 258q59 0 101.5 4
t80.5 15.5t61.5 30.5t36.5 49.5t13 72.5q0 43 -13.5 73.5t-36.5 49.5t-61 30t-80.5 15t-101.5 4h-676v-344h676z" />
    <glyph glyph-name="C" unicode="C" horiz-adv-x="1828" 
d="M999 238q327 0 478 233l299 -149q-108 -162 -313.5 -264.5t-473.5 -102.5q-269 0 -469 90.5t-310 263t-110 408.5t110.5 408.5t314.5 263t479 90.5q258 0 461 -103t307 -262l-302 -149q-147 231 -471 231q-261 0 -413 -124t-152 -355t152 -355t413 -124z" />
    <glyph glyph-name="D" unicode="D" horiz-adv-x="1941" 
d="M954 1434q202 0 367 -49.5t280 -141.5t177.5 -226.5t62.5 -299.5t-62.5 -299.5t-177.5 -226.5t-280 -141.5t-367 -49.5h-761v1434h761zM930 279q266 0 421.5 111.5t155.5 326.5t-155.5 326.5t-421.5 111.5h-410v-876h410z" />
    <glyph glyph-name="E" unicode="E" horiz-adv-x="1759" 
d="M518 274h1151v-274h-1476v1434h1456v-275h-1131v-295h944v-274h-944v-316z" />
    <glyph glyph-name="F" unicode="F" horiz-adv-x="1695" 
d="M1642 1151h-1122v-332h946v-282h-946v-537h-327v1434h1449v-283z" />
    <glyph glyph-name="G" unicode="G" horiz-adv-x="1945" 
d="M1841 809v-518q-112 -153 -323 -244.5t-492 -91.5q-433 0 -679.5 202t-246.5 560t246.5 560t679.5 202q245 0 435 -77.5t311 -195.5l-256 -186q-95 93 -211 136.5t-277 43.5q-284 0 -439 -123t-155 -360t158.5 -360.5t447.5 -123.5q353 0 494 170v140h-541v266h848z" />
    <glyph glyph-name="H" unicode="H" horiz-adv-x="2017" 
d="M1497 1434h328v-1434h-328v584h-977v-584h-327v1434h327v-564h977v564z" />
    <glyph glyph-name="I" unicode="I" horiz-adv-x="712" 
d="M520 0h-327v1434h327v-1434z" />
    <glyph glyph-name="J" unicode="J" horiz-adv-x="1476" 
d="M233 406q64 -85 149.5 -124.5t215.5 -39.5q385 0 385 399v793h328v-818q0 -144 -44 -263.5t-130.5 -209t-224 -139t-314.5 -49.5q-396 0 -596 256z" />
    <glyph glyph-name="K" unicode="K" horiz-adv-x="1832" 
d="M1841 0h-393l-553 674l-375 -318v-356h-327v1434h327v-727l852 727h430l-667 -566z" />
    <glyph glyph-name="L" unicode="L" horiz-adv-x="1570" 
d="M520 283h1014v-283h-1341v1434h327v-1151z" />
    <glyph glyph-name="M" unicode="M" horiz-adv-x="2304" 
d="M1761 1434h350v-1434h-327v997l-629 -768h-16l-629 768v-997h-317v1434h356l606 -758z" />
    <glyph glyph-name="N" unicode="N" horiz-adv-x="2017" 
d="M1507 1434h318v-1434h-287l-1028 1036v-1036h-317v1434h348l966 -983v983z" />
    <glyph glyph-name="O" unicode="O" horiz-adv-x="2025" 
d="M1012 -45q-422 0 -667 202.5t-245 559.5t245 559.5t667 202.5t666.5 -202.5t244.5 -559.5t-244.5 -559.5t-666.5 -202.5zM1012 238q268 0 422.5 125.5t154.5 353.5t-154.5 353.5t-422.5 125.5q-269 0 -423.5 -125.5t-154.5 -353.5t154 -353.5t424 -125.5z" />
    <glyph glyph-name="P" unicode="P" horiz-adv-x="1849" 
d="M1174 1434q282 0 448 -127.5t166 -358.5q0 -233 -165.5 -359t-448.5 -126h-654v-463h-327v1434h981zM1147 733q72 0 126 10.5t96 34.5t63.5 66t21.5 102t-21.5 102t-63.5 66t-96 34.5t-126 10.5h-627v-426h627z" />
    <glyph glyph-name="Q" unicode="Q" horiz-adv-x="2025" 
d="M1923 717q0 -187 -70 -335t-202 -247l184 -198l-178 -154l-221 240q-186 -68 -424 -68q-422 0 -667 202.5t-245 559.5t245 559.5t667 202.5t666.5 -202.5t244.5 -559.5zM1012 238q106 0 202 22l-190 205l178 156l236 -254q151 123 151 350q0 228 -154.5 353.5
t-422.5 125.5q-269 0 -423.5 -125.5t-154.5 -353.5t154 -353.5t424 -125.5z" />
    <glyph glyph-name="R" unicode="R" horiz-adv-x="1908" 
d="M1839 0h-391l-412 487h-518v-487h-325v1434h989q132 0 243.5 -30.5t194.5 -89t129.5 -149t46.5 -204.5q0 -178 -107 -293t-292 -158zM516 758h647q69 0 120 9t93 30.5t64 62t22 98.5t-22 98.5t-64 62.5t-93 31t-120 9h-647v-401z" />
    <glyph glyph-name="S" unicode="S" horiz-adv-x="1787" 
d="M936 883q146 -12 257.5 -30.5t212.5 -52.5t166.5 -82t103.5 -120t38 -164q0 -218 -202 -348.5t-574 -130.5q-537 0 -877 289l189 223q259 -238 696 -238q438 0 438 174q0 44 -26.5 74t-90 50.5t-145.5 32.5t-215 24q-110 9 -201.5 23t-185 36t-163.5 55t-125.5 77
t-85 105t-29.5 136q0 146 99 252t269.5 158.5t393.5 52.5q234 0 431.5 -56.5t334.5 -162.5l-181 -228q-221 169 -585 172q-79 1 -151 -6.5t-138 -25t-105 -51.5t-39 -81q0 -74 108 -108q81 -25 321 -44h1h1h1h1h1l1 -1h1h1h1h1h1h1h1h1h1h1h1l1 -1h1h1h1h1h1h1h1h1h1h1h1h1
l1 -1h1h1h1h1h1h1h1h1h1h1l1 -1h1h1h1h1h1h1h1h1h1h1h1h1l1 -1h1h1h1h1h2z" />
    <glyph glyph-name="T" unicode="T" horiz-adv-x="1644" 
d="M1612 1434v-283h-627v-1151h-328v1151h-622v283h1577z" />
    <glyph glyph-name="U" unicode="U" horiz-adv-x="1943" 
d="M1450 1434h328v-758q0 -161 -53 -294t-154 -228t-253.5 -147t-344.5 -52t-344.5 52t-253.5 147t-154 228t-53 294v758h328v-734q0 -217 123.5 -337.5t353.5 -120.5t353.5 120.5t123.5 337.5v734z" />
    <glyph glyph-name="V" unicode="V" horiz-adv-x="1798" 
d="M4 1434h358l541 -1108l539 1108h354l-723 -1434h-346z" />
    <glyph glyph-name="W" unicode="W" horiz-adv-x="2533" 
d="M2165 1434h338l-525 -1434h-333l-377 1081l-381 -1081h-330l-524 1434h344l352 -1061l383 1061h318l380 -1061z" />
    <glyph glyph-name="X" unicode="X" horiz-adv-x="1718" 
d="M1702 1434l-647 -705l659 -729h-401l-463 508l-463 -508h-381l658 725l-648 709h402l452 -496l449 496h383z" />
    <glyph glyph-name="Y" unicode="Y" horiz-adv-x="1720" 
d="M6 1434h373l483 -672l481 672h371l-690 -945v-489h-328v489z" />
    <glyph glyph-name="Z" unicode="Z" horiz-adv-x="1753" 
d="M1636 1434v-224l-1067 -936h1100v-274h-1587v223l1067 936h-1030v275h1517z" />
    <glyph glyph-name="a" unicode="a" horiz-adv-x="1558" 
d="M743 1171q312 0 486 -140t174 -400v-416q0 -124 51 -215h-326q-41 67 -41 133v2q-70 -76 -192.5 -126t-276.5 -50q-77 0 -151 12t-148.5 41t-130 72t-90.5 111.5t-35 152.5t35 152t90.5 111t130 72t148.5 40.5t151 11.5q155 0 277.5 -49.5t191.5 -126.5v74
q0 155 -101 227t-306 72q-123 0 -219 -20.5t-193 -73.5l-94 209q110 57 264 90.5t305 33.5zM1094 334v28q-105 166 -398 166q-56 0 -107 -7.5t-102.5 -25.5t-82.5 -56t-31 -91t31 -91t82.5 -56.5t102.5 -26.5t107 -8q292 0 398 168z" />
    <glyph glyph-name="b" unicode="b" 
d="M973 1169q178 0 316 -74t215 -212t77 -320t-77 -320t-215 -212t-316 -74q-165 0 -291.5 62.5t-200.5 162.5v-182h-317v1516h317v-572q74 100 200.5 162.5t291.5 62.5zM893 221q185 0 285 88.5t100 253.5t-100 253.5t-285 88.5q-270 0 -410 -184v-315q141 -185 410 -185z
" />
    <glyph glyph-name="c" unicode="c" horiz-adv-x="1484" 
d="M1440 270q-75 -140 -238.5 -227.5t-396.5 -87.5q-331 0 -523 164t-192 444q0 282 192 446.5t523 164.5q230 0 392 -87t237 -225l-293 -114q-90 170 -334 170q-184 0 -297 -91t-113 -264q0 -169 113 -260.5t297 -91.5q246 0 342 176z" />
    <glyph glyph-name="d" unicode="d" 
d="M698 1169q165 0 291.5 -62.5t200.5 -162.5v572h317v-1516h-317v182q-74 -100 -200.5 -162.5t-291.5 -62.5q-178 0 -316 74t-215 212t-77 320t77 320t215 212t316 74zM778 221q269 0 410 185v315q-140 184 -410 184q-185 0 -285 -88.5t-100 -253.5t100 -253.5t285 -88.5z
" />
    <glyph glyph-name="e" unicode="e" horiz-adv-x="1562" 
d="M395 492q42 -295 445 -295q141 0 241.5 35.5t192.5 109.5l170 -186q-228 -201 -621 -201q-346 0 -539.5 162.5t-193.5 445.5q0 284 189.5 447.5t521.5 163.5q315 0 499.5 -158t184.5 -451q0 -49 -8 -73h-1082zM803 932q-158 0 -259 -60t-134 -178l772 4q-71 234 -379 234
z" />
    <glyph glyph-name="f" unicode="f" horiz-adv-x="1067" 
d="M559 1192v-64h473v-237h-465v-891h-317v891h-209v237h209v27q0 101 34 179t94.5 126.5t140.5 73.5t175 25q89 0 185.5 -20.5t164.5 -55.5l-63 -195q-108 58 -217 58q-205 0 -205 -154z" />
    <glyph glyph-name="g" unicode="g" 
d="M1507 1128v-956q0 -134 -41 -242t-108.5 -178t-160.5 -116.5t-192 -66.5t-208 -20q-158 0 -326.5 38t-267.5 100l94 231q82 -53 202.5 -85t262.5 -32q428 0 428 318v96q-77 -106 -210 -164.5t-286 -58.5q-277 0 -440.5 158.5t-163.5 429.5t163.5 430t440.5 159
q160 0 289 -58.5t207 -166.5v184h317zM782 238q258 0 410 208v267q-148 209 -410 209q-185 0 -285 -90t-100 -252q0 -161 100 -251.5t285 -90.5z" />
    <glyph glyph-name="h" unicode="h" horiz-adv-x="1634" 
d="M973 1169q247 0 379.5 -141.5t132.5 -374.5v-653h-318v633q0 139 -73 212t-213 73q-264 0 -400 -240v-678h-317v1128v388h317v-404v-182q69 113 199 176t293 63z" />
    <glyph glyph-name="i" unicode="i" horiz-adv-x="645" 
d="M324 1264q-85 0 -139 45t-54 114q0 72 54 117t139 45q83 0 135.5 -45t52.5 -117q0 -69 -52.5 -114t-135.5 -45zM485 1128v-1128h-317v1128h317z" />
    <glyph glyph-name="j" unicode="j" horiz-adv-x="645" 
d="M324 1264q-85 0 -139 45t-54 114q0 72 54 117t139 45q83 0 135.5 -45t52.5 -117q0 -69 -52.5 -114t-135.5 -45zM162 1128h317v-1175q0 -188 -110 -297t-295 -109q-130 0 -250 47l59 220q61 -23 119 -23q72 0 116 46.5t44 125.5v1165z" />
    <glyph glyph-name="k" unicode="k" horiz-adv-x="1488" 
d="M1145 0l-397 506l-267 -225v-281h-317v1516h317v-936l609 548h374l-495 -448l526 -680h-350z" />
    <glyph glyph-name="l" unicode="l" horiz-adv-x="653" 
d="M485 0h-317v1516h317v-1516z" />
    <glyph glyph-name="m" unicode="m" horiz-adv-x="2525" 
d="M1892 1169q121 0 215 -39t152 -109t87.5 -162.5t29.5 -203.5v-655h-316v639q0 134 -68 206.5t-204 72.5q-239 0 -361 -238v-25v-432l3 -223h-318v639q0 134 -68 206.5t-204 72.5q-235 0 -359 -232v-686h-317v1128h317v-200q66 114 187 177.5t276 63.5q177 0 291 -80.5
t160 -220.5q60 137 191 219t306 82z" />
    <glyph glyph-name="n" unicode="n" horiz-adv-x="1634" 
d="M481 0h-317v1128h317v-198q69 113 199 176t293 63q247 0 379.5 -141.5t132.5 -374.5v-653h-318v633q0 139 -73 212t-213 73q-264 0 -400 -240v-678z" />
    <glyph glyph-name="o" unicode="o" horiz-adv-x="1622" 
d="M811 -45q-334 0 -527.5 163.5t-193.5 444.5q0 283 193 445.5t528 162.5q334 0 527.5 -163t193.5 -445q0 -281 -194 -444.5t-527 -163.5zM811 213q187 0 301.5 90.5t114.5 259.5q0 171 -114 260.5t-302 89.5q-186 0 -300 -89.5t-114 -260.5q0 -169 114 -259.5t300 -90.5z
" />
    <glyph glyph-name="p" unicode="p" 
d="M973 -41q-165 0 -291.5 62.5t-200.5 162.5v-594h-317v1538h317v-182q74 100 200.5 162.5t291.5 62.5q178 0 316 -74t215 -212t77 -320t-77 -320t-215 -212t-316 -74zM893 907q-270 0 -410 -184v-315q141 -185 410 -185q185 0 285 88.5t100 253.5t-100 253.5t-285 88.5z
" />
    <glyph glyph-name="q" unicode="q" 
d="M698 -41q-178 0 -316 74t-215 212t-77 320t77 320t215 212t316 74q165 0 291.5 -62.5t200.5 -162.5v182h317v-1538h-317v594q-74 -100 -200.5 -162.5t-291.5 -62.5zM778 907q-185 0 -285 -88.5t-100 -253.5t100 -253.5t285 -88.5q269 0 410 185v315q-140 184 -410 184z
" />
    <glyph glyph-name="r" unicode="r" horiz-adv-x="1019" 
d="M481 0h-317v1128h317v-233q67 125 202 191.5t302 66.5v-272q-189 0 -321.5 -74.5t-182.5 -220.5v-586z" />
    <glyph glyph-name="s" unicode="s" horiz-adv-x="1454" 
d="M770 707q137 -8 246 -32.5t193 -67.5t129.5 -111t45.5 -156q0 -170 -160 -277.5t-458 -107.5q-213 0 -399 61.5t-304 161.5l154 189q91 -78 235.5 -124t321.5 -46q318 0 318 120q0 59 -88 87.5t-277 41.5q-102 7 -187 21t-168 41t-139.5 64.5t-91.5 95.5t-35 131
q0 171 161 273t470 102q170 0 327.5 -47t268.5 -121l-145 -201q-192 127 -467 127q-55 0 -106 -5t-101 -16.5t-80.5 -35t-30.5 -56.5q0 -21 11.5 -37t37 -27.5t54 -19t75.5 -13t87 -9t102 -6.5z" />
    <glyph glyph-name="t" unicode="t" horiz-adv-x="1083" 
d="M977 281l65 -215q-73 -50 -172 -79.5t-198 -29.5q-186 0 -304 99.5t-118 283.5v551h-209v237h209v263h317v-263h465v-237h-465v-496q0 -83 55.5 -128.5t143.5 -45.5q89 0 211 60z" />
    <glyph glyph-name="u" unicode="u" horiz-adv-x="1634" 
d="M1153 1128h317v-1128h-317v199q-69 -113 -199 -176.5t-292 -63.5q-247 0 -379.5 141.5t-132.5 374.5v653h317v-632q0 -138 73.5 -211.5t213.5 -73.5q263 0 399 240v677z" />
    <glyph glyph-name="v" unicode="v" horiz-adv-x="1497" 
d="M1481 1128l-566 -1128h-331l-568 1128h342l394 -827l393 827h336z" />
    <glyph glyph-name="w" unicode="w" horiz-adv-x="2099" 
d="M1755 1128h307l-409 -1128h-312l-290 819l-293 -819h-314l-407 1128h313l273 -796l282 796h293l285 -796z" />
    <glyph glyph-name="x" unicode="x" horiz-adv-x="1417" 
d="M1391 1128l-498 -553l508 -575h-367l-332 387l-335 -387h-351l508 569l-499 559h364l326 -376l325 376h351z" />
    <glyph glyph-name="y" unicode="y" horiz-adv-x="1484" 
d="M1141 1128h327l-823 -1538h-323l268 480l-574 1058h334l402 -763z" />
    <glyph glyph-name="z" unicode="z" horiz-adv-x="1417" 
d="M1307 1128v-196l-787 -692h811v-242h-1251v199l786 692h-757v239h1198z" />
    </font>
</defs>
</svg>
