<?xml version="1.0" standalone="no"?>
<!DOCTYPE svg PUBLIC "-//W3C//DTD SVG 1.1//EN" "http://www.w3.org/Graphics/SVG/1.1/DTD/svg11.dtd" >
<svg xmlns="http://www.w3.org/2000/svg" xmlns:xlink="http://www.w3.org/1999/xlink" version="1.1">
<metadata>
Created by FontForge 20170731 at Wed Jan 25 12:10:57 2023
 By Aleksey,,,
Copyright (c) 2015 by Mattox Shuler. All rights reserved.
</metadata>
<defs>
<font id="Termina-Light" horiz-adv-x="1630" >
  <font-face 
    font-family="Termina Test Light"
    font-weight="300"
    font-stretch="normal"
    units-per-em="2048"
    panose-1="0 0 4 0 0 0 0 0 0 0"
    ascent="1638"
    descent="-410"
    x-height="1112"
    cap-height="1434"
    bbox="-127 -451 2363 1556"
    underline-thickness="102"
    underline-position="-307"
    unicode-range="U+0020-007A"
  />
<missing-glyph horiz-adv-x="1034" 
 />
    <glyph glyph-name=".notdef" horiz-adv-x="1034" 
 />
    <glyph glyph-name=".null" horiz-adv-x="0" 
 />
    <glyph glyph-name="nonmarkingreturn" horiz-adv-x="682" 
 />
    <glyph glyph-name="space" unicode=" " horiz-adv-x="671" 
 />
    <glyph glyph-name="comma" unicode="," horiz-adv-x="501" 
d="M256 147q38 0 63 -25t25 -65q0 -171 -121 -321l-41 28q84 118 94 226q-6 -6 -26 -6q-34 0 -57 23.5t-23 58.5t24 58t62 23z" />
    <glyph glyph-name="hyphen" unicode="-" horiz-adv-x="1222" 
d="M1034 563h-846v94h846v-94z" />
    <glyph glyph-name="period" unicode="." horiz-adv-x="489" 
d="M246 -16q-38 0 -62 23t-24 59q0 35 24 58t62 23t62 -23t24 -58q0 -36 -24 -59t-62 -23z" />
    <glyph glyph-name="zero" unicode="0" horiz-adv-x="1918" 
d="M961 -43q-384 0 -600 205t-216 555t216 555t600 205t599.5 -205t215.5 -555t-215.5 -555t-599.5 -205zM961 57q327 0 515.5 172.5t188.5 487.5t-188.5 487t-515.5 172q-329 0 -518 -172t-189 -487t189.5 -487.5t517.5 -172.5z" />
    <glyph glyph-name="one" unicode="1" horiz-adv-x="886" 
d="M524 0v1300q-193 -169 -452 -210v96q237 36 477 248h82v-1434h-107z" />
    <glyph glyph-name="two" unicode="2" horiz-adv-x="1658" 
d="M158 1114q86 162 267.5 261.5t418.5 99.5q170 0 316 -48.5t240.5 -147t94.5 -228.5q0 -51 -15 -96t-40.5 -82t-68.5 -72t-88.5 -63t-111 -58t-125.5 -53.5t-143 -53.5q-272 -99 -447.5 -219.5t-211.5 -257.5h1286v-96h-1419v59q36 176 228.5 329.5t512.5 273.5
q63 23 99.5 37t90.5 35.5t85 36.5t72.5 36.5t64.5 40t49.5 42.5t39.5 47.5t22 52t9 59.5q0 103 -78.5 180t-199.5 114t-264 37q-204 0 -356 -82.5t-244 -236.5z" />
    <glyph glyph-name="three" unicode="3" horiz-adv-x="1710" 
d="M197 367q77 -146 245.5 -229t413.5 -83q172 0 306.5 40t213 119.5t78.5 186.5q0 108 -80.5 179t-217.5 102t-329 31h-176v96h176q118 0 219 16.5t182 50t127 90t46 130.5q0 87 -79.5 153.5t-202.5 98.5t-267 32q-448 0 -610 -274l-92 49q93 154 267 237t423 83
q182 0 333 -43.5t244.5 -130.5t93.5 -201q0 -74 -35.5 -136.5t-93.5 -103.5t-128.5 -65t-145.5 -29q63 -6 123.5 -21.5t122.5 -45.5t108.5 -70t75.5 -100t29 -132q0 -132 -92.5 -232t-253.5 -153t-367 -53q-277 0 -466 95.5t-286 260.5z" />
    <glyph glyph-name="four" unicode="4" horiz-adv-x="1742" 
d="M1661 475v-94h-324v-381h-106v381h-1161v78l1175 975h92v-959h324zM231 475h1000v823z" />
    <glyph glyph-name="five" unicode="5" horiz-adv-x="1701" 
d="M207 385q89 -154 261.5 -242t410.5 -88q176 0 313 45t214 130t77 198q0 183 -168.5 279t-460.5 96q-294 0 -584 -125l-86 35l123 721h1135v-97h-1047l-98 -567q146 71 281.5 97t302.5 26q155 0 283.5 -28.5t224.5 -85t149 -146.5t53 -207q0 -98 -51 -184.5t-142.5 -149
t-225.5 -99t-293 -36.5q-262 0 -458.5 102t-297.5 271z" />
    <glyph glyph-name="six" unicode="6" horiz-adv-x="1798" 
d="M1022 897q138 0 254.5 -28.5t205.5 -84.5t139 -146t50 -206q0 -208 -197 -341.5t-518 -133.5q-380 0 -595.5 206t-215.5 554t215.5 554t595.5 206q433 0 654 -260l-84 -64q-199 229 -565 229q-325 0 -516 -171.5t-191 -493.5q0 -93 14 -162q104 154 305 248t449 94z
M956 51q272 0 438.5 104.5t166.5 276.5q0 124 -72.5 209.5t-195.5 124.5t-289 39q-218 0 -411.5 -92.5t-299.5 -251.5q67 -200 239.5 -305t423.5 -105z" />
    <glyph glyph-name="seven" unicode="7" horiz-adv-x="1519" 
d="M481 0l856 1337h-1282v97h1418v-80l-861 -1354h-131z" />
    <glyph glyph-name="eight" unicode="8" horiz-adv-x="1806" 
d="M1194 766q63 -6 125.5 -21.5t125.5 -46.5t110.5 -72.5t77.5 -104t30 -136.5q0 -127 -95 -224t-268 -150.5t-397 -53.5t-396.5 53.5t-267 150.5t-94.5 224q0 74 30 136.5t77.5 104t110.5 72.5t125.5 46.5t125.5 21.5q-78 5 -150 28.5t-131.5 63.5t-95.5 102.5t-36 137.5
q0 116 95.5 203t253.5 131.5t353 44.5t354 -44.5t255 -131.5t96 -203q0 -75 -36 -137.5t-96 -102.5t-132 -63.5t-150 -28.5zM309 1096q0 -77 47.5 -134.5t131.5 -91t188 -49.5t227 -16q124 0 228.5 16t188.5 49.5t131.5 91t47.5 134.5q0 92 -83.5 158t-216 97t-296.5 31
q-163 0 -295 -31t-215.5 -97t-83.5 -158zM903 51q293 0 470 89t177 243q0 162 -174.5 248t-472.5 86t-472.5 -86t-174.5 -248q0 -150 178 -241t469 -91z" />
    <glyph glyph-name="nine" unicode="9" horiz-adv-x="1798" 
d="M844 1477q380 0 595.5 -206t215.5 -554t-215.5 -554t-595.5 -206q-431 0 -654 262l84 64q196 -232 566 -232q323 0 513.5 172.5t190.5 493.5q0 91 -14 162q-103 -154 -304 -247t-448 -93q-138 0 -254.5 28t-205.5 83.5t-139 145t-50 205.5q0 209 197 342.5t518 133.5z
M797 631q217 0 410.5 91t299.5 249q-67 201 -239.5 306t-423.5 105q-274 0 -440 -104t-166 -277q0 -124 73 -208.5t196 -123t290 -38.5z" />
    <glyph glyph-name="A" unicode="A" horiz-adv-x="1814" 
d="M1651 0l-238 424h-1014l-235 -424h-119l803 1434h119l802 -1434h-118zM453 522h907l-455 813z" />
    <glyph glyph-name="B" unicode="B" horiz-adv-x="1890" 
d="M1356 741q86 -5 154 -25.5t124 -60t86.5 -107.5t30.5 -159q0 -194 -138.5 -291.5t-389.5 -97.5h-967v1434h946q207 0 337 -92.5t130 -264.5q0 -133 -83 -228t-230 -108zM362 1337v-553h828q168 0 269.5 70t101.5 211q0 140 -100.5 206t-270.5 66h-828zM1206 98
q434 0 434 297q0 152 -111 221.5t-323 69.5h-844v-588h844z" />
    <glyph glyph-name="C" unicode="C" horiz-adv-x="1816" 
d="M997 57q433 0 615 285l100 -51q-104 -159 -285 -246.5t-432 -87.5q-396 0 -623 206t-227 554q0 349 227.5 554.5t626.5 205.5q248 0 428.5 -87.5t284.5 -246.5l-100 -51q-184 284 -615 284q-225 0 -391.5 -75t-259 -224.5t-92.5 -359.5q0 -315 200.5 -487.5t542.5 -172.5
z" />
    <glyph glyph-name="D" unicode="D" horiz-adv-x="1918" 
d="M924 1434q389 0 619.5 -194.5t230.5 -522.5t-230.5 -522.5t-619.5 -194.5h-668v1434h668zM918 100q219 0 386 69.5t264 210.5t97 337t-97 337t-264 211t-386 70h-556v-1235h556z" />
    <glyph glyph-name="E" unicode="E" horiz-adv-x="1734" 
d="M362 100h1244v-100h-1350v1434h1329v-99h-1223v-555h1049v-100h-1049v-580z" />
    <glyph glyph-name="F" unicode="F" horiz-adv-x="1667" 
d="M1583 1335h-1221v-585h1049v-101h-1049v-649h-106v1434h1327v-99z" />
    <glyph glyph-name="G" unicode="G" horiz-adv-x="1941" 
d="M1806 723v-344q-82 -188 -293 -305t-503 -117q-406 0 -635.5 205.5t-229.5 554.5q0 350 228.5 555t632.5 205q248 0 428.5 -81.5t291.5 -224.5l-92 -63q-203 268 -628 268q-349 0 -550.5 -171.5t-201.5 -487.5q0 -315 203.5 -487.5t554.5 -172.5q244 0 426 89.5
t262 261.5v217h-705v98h811z" />
    <glyph glyph-name="H" unicode="H" horiz-adv-x="1990" 
d="M1628 1434h107v-1434h-107v676h-1266v-676h-106v1434h106v-656h1266v656z" />
    <glyph glyph-name="I" unicode="I" horiz-adv-x="618" 
d="M362 0h-106v1434h106v-1434z" />
    <glyph glyph-name="J" unicode="J" horiz-adv-x="1390" 
d="M139 254q129 -197 428 -197q127 0 222.5 39.5t154 111.5t87 168t28.5 214v844h106v-850q0 -104 -20.5 -195t-66.5 -171.5t-114.5 -137.5t-169.5 -90t-227 -33q-360 0 -516 238z" />
    <glyph glyph-name="K" unicode="K" horiz-adv-x="1792" 
d="M1761 0h-137l-737 811l-525 -395v-416h-106v1434h106v-895l1199 895h153l-739 -562z" />
    <glyph glyph-name="L" unicode="L" horiz-adv-x="1548" 
d="M362 100h1133v-100h-1239v1434h106v-1334z" />
    <glyph glyph-name="M" unicode="M" horiz-adv-x="2277" 
d="M1909 1434h112v-1434h-106v1282l-772 -930h-8l-775 930v-1282h-104v1434h117l768 -926z" />
    <glyph glyph-name="N" unicode="N" horiz-adv-x="1990" 
d="M1630 1434h105v-1434h-95l-1280 1298v-1298h-104v1434h119l1255 -1276v1276z" />
    <glyph glyph-name="O" unicode="O" horiz-adv-x="2000" 
d="M1001 -43q-401 0 -628.5 205t-227.5 555t227.5 555t628.5 205t629 -205t228 -555t-228 -555t-629 -205zM1001 57q343 0 544.5 174.5t201.5 485.5t-201.5 485t-544.5 174q-344 0 -545.5 -174t-201.5 -485t201.5 -485.5t545.5 -174.5z" />
    <glyph glyph-name="P" unicode="P" horiz-adv-x="1826" 
d="M1194 1434q245 0 388.5 -118.5t143.5 -322.5q0 -205 -143.5 -323.5t-388.5 -118.5h-832v-551h-106v1434h938zM1188 649q201 0 315.5 90t114.5 254q0 163 -114.5 252.5t-315.5 89.5h-826v-686h826z" />
    <glyph glyph-name="Q" unicode="Q" horiz-adv-x="2000" 
d="M1858 717q0 -212 -86.5 -373.5t-249.5 -259.5l221 -248l-70 -63l-239 266q-187 -82 -433 -82q-401 0 -628.5 205t-227.5 555t227.5 555t628.5 205t629 -205t228 -555zM1001 57q207 0 359 64l-254 282l72 64l272 -303q142 83 219.5 223.5t77.5 329.5q0 311 -201.5 485
t-544.5 174q-344 0 -545.5 -174t-201.5 -485t201.5 -485.5t545.5 -174.5z" />
    <glyph glyph-name="R" unicode="R" horiz-adv-x="1886" 
d="M1774 0h-140l-501 575h-768v-575h-109v1434h940q242 0 387.5 -114.5t145.5 -313.5q0 -187 -125.5 -300t-339.5 -128zM362 674h828q201 0 315.5 86.5t114.5 245.5q0 158 -114.5 243.5t-315.5 85.5h-828v-661z" />
    <glyph glyph-name="S" unicode="S" horiz-adv-x="1765" 
d="M932 786q137 -12 240.5 -29t198 -46.5t154.5 -70.5t95 -101.5t35 -139.5q0 -194 -192.5 -318t-534.5 -124q-253 0 -465 78.5t-350 228.5l77 76q255 -283 742 -283q289 0 451.5 93t162.5 243q0 49 -19 88t-59 68t-92 50.5t-130 37.5t-159 27.5t-192 21.5q-86 8 -158 18
t-149 26t-137 36.5t-115.5 49.5t-92 65t-58 84t-21.5 104q0 95 59.5 173.5t159 129t227 78t267.5 27.5q227 0 406.5 -67t295.5 -185l-84 -70q-202 218 -614 221q-107 1 -212 -17.5t-194.5 -54.5t-145 -96.5t-55.5 -136.5q0 -42 18.5 -77t49 -61t79.5 -47.5t101.5 -36
t123.5 -27t136.5 -20.5t149.5 -16z" />
    <glyph glyph-name="T" unicode="T" horiz-adv-x="1607" 
d="M1556 1434v-97h-700v-1337h-106v1337h-699v97h1505z" />
    <glyph glyph-name="U" unicode="U" horiz-adv-x="1927" 
d="M1593 1434h107v-758q0 -155 -48 -286t-138.5 -228t-231.5 -151t-317 -54q-177 0 -318.5 54t-232.5 151t-139 228t-48 286v758h107v-752q0 -288 167 -456.5t464 -168.5q295 0 461.5 168.5t166.5 456.5v752z" />
    <glyph glyph-name="V" unicode="V" horiz-adv-x="1763" 
d="M45 1434h121l719 -1315l717 1315h116l-778 -1434h-115z" />
    <glyph glyph-name="W" unicode="W" horiz-adv-x="2437" 
d="M2249 1434h114l-532 -1434h-111l-499 1303l-502 -1303h-113l-530 1434h117l471 -1299l501 1299h111l500 -1299z" />
    <glyph glyph-name="X" unicode="X" horiz-adv-x="1619" 
d="M1569 1434l-688 -713l690 -721h-141l-621 645l-621 -645h-137l688 719l-686 715h142l618 -641l617 641h139z" />
    <glyph glyph-name="Y" unicode="Y" horiz-adv-x="1671" 
d="M49 1434h131l658 -828l655 828h129l-733 -926v-508h-107v508z" />
    <glyph glyph-name="Z" unicode="Z" horiz-adv-x="1689" 
d="M1552 1434v-80l-1290 -1256h1323v-98h-1485v82l1291 1255h-1254v97h1415z" />
    <glyph glyph-name="a" unicode="a" horiz-adv-x="1525" 
d="M739 1153q275 0 429.5 -138t154.5 -401v-395q0 -129 53 -219h-112q-47 82 -47 201v6q-63 -111 -206.5 -179.5t-324.5 -68.5q-78 0 -155.5 12.5t-155.5 42t-136.5 73t-95.5 112.5t-37 153t37 153t95.5 112.5t136.5 73t155.5 42t155.5 12.5q182 0 325.5 -67.5t205.5 -179.5
v116q0 221 -124 334t-368 113q-261 0 -469 -139l-49 77q97 69 239.5 111.5t292.5 42.5zM1219 315v76q-63 132 -207 199t-318 67q-62 0 -123.5 -8t-128 -30t-116.5 -55t-82.5 -88t-32.5 -124q0 -85 47.5 -147.5t124 -94.5t154.5 -46.5t157 -14.5q173 0 317.5 67.5
t207.5 198.5z" />
    <glyph glyph-name="b" unicode="b" 
d="M887 1153q284 0 448 -164t164 -434q0 -269 -164 -432.5t-448 -163.5q-189 0 -335.5 76t-225.5 209v-244h-105v1516h105v-648q79 133 225.5 209t335.5 76zM864 53q249 0 389 134t140 368q0 236 -139.5 370t-389.5 134q-179 0 -316.5 -76.5t-221.5 -228.5v-396
q84 -152 221.5 -228.5t316.5 -76.5z" />
    <glyph glyph-name="c" unicode="c" horiz-adv-x="1470" 
d="M1370 227q-170 -270 -573 -270q-311 0 -487.5 162t-176.5 436q0 276 176.5 437t487.5 161q393 0 567 -258l-98 -51q-65 107 -188.5 161t-278.5 54q-258 0 -408.5 -130.5t-150.5 -373.5q0 -241 151 -371.5t408 -130.5q157 0 282 55.5t189 165.5z" />
    <glyph glyph-name="d" unicode="d" 
d="M745 1153q187 0 334 -76t228 -209v648h104v-1516h-104v244q-81 -133 -228 -209t-334 -76q-285 0 -448.5 163.5t-163.5 432.5q0 271 163.5 434.5t448.5 163.5zM766 53q179 0 317.5 76.5t223.5 228.5v396q-85 152 -223.5 228.5t-317.5 76.5q-248 0 -387 -134t-139 -370
q0 -234 139 -368t387 -134z" />
    <glyph glyph-name="e" unicode="e" horiz-adv-x="1550" 
d="M791 1153q297 0 466.5 -154t174.5 -426q0 -16 -2 -20h-95h-1095q0 -243 149.5 -373.5t409.5 -130.5q177 0 300.5 44.5t225.5 142.5l70 -74q-115 -107 -257.5 -156t-342.5 -49q-312 0 -487 161.5t-175 436.5q0 276 174.5 437t483.5 161zM791 1063q-230 0 -375.5 -109.5
t-171.5 -312.5h1081q-29 208 -169 315t-365 107z" />
    <glyph glyph-name="f" unicode="f" horiz-adv-x="948" 
d="M381 1255v-143h532v-92h-532v-1020h-105v1020h-231v92h231v133q0 77 27.5 138t75 98t106 56t123.5 19q197 0 320 -108l-51 -68q-109 93 -261 93q-102 0 -168.5 -55.5t-66.5 -162.5z" />
    <glyph glyph-name="g" unicode="g" 
d="M1411 1112v-1010q0 -138 -48.5 -245t-135 -173.5t-201 -100.5t-250.5 -34q-148 0 -286.5 41.5t-237.5 114.5l51 80q205 -141 465 -141q257 0 398 115.5t141 334.5v150q-80 -131 -230 -208t-332 -77q-285 0 -448.5 163.5t-163.5 432.5q0 271 163.5 434.5t448.5 163.5
q187 0 334 -76t228 -209v244h104zM766 53q180 0 318 76t223 229v396q-85 153 -223 229t-318 76q-248 0 -387 -134t-139 -370q0 -234 139 -368t387 -134z" />
    <glyph glyph-name="h" unicode="h" horiz-adv-x="1605" 
d="M877 1153q257 0 388.5 -145t131.5 -387v-621h-105v614q0 215 -107.5 330t-324.5 115q-180 0 -318 -82.5t-216 -247.5v-729h-105v1516h105v-660q77 140 221 218.5t330 78.5z" />
    <glyph glyph-name="i" unicode="i" horiz-adv-x="555" 
d="M279 1298q-37 0 -61.5 23t-24.5 57t24.5 56t61.5 22t60 -22t23 -56t-23.5 -57t-59.5 -23zM332 1112v-1112h-105v1112h105z" />
    <glyph glyph-name="j" unicode="j" horiz-adv-x="555" 
d="M279 1298q-36 0 -61 22.5t-25 55.5q0 34 24.5 56t61.5 22t60 -22t23 -56q0 -33 -23.5 -55.5t-59.5 -22.5zM225 1112h105v-1270q0 -137 -75.5 -215t-199.5 -78q-110 0 -182 39l35 84q47 -26 129 -26q89 0 138.5 57.5t49.5 155.5v1253z" />
    <glyph glyph-name="k" unicode="k" horiz-adv-x="1400" 
d="M1245 0l-547 618l-372 -284v-334h-105v1516h105v-1074l868 670h141l-555 -434l594 -678h-129z" />
    <glyph glyph-name="l" unicode="l" horiz-adv-x="559" 
d="M332 0h-105v1516h105v-1516z" />
    <glyph glyph-name="m" unicode="m" horiz-adv-x="2525" 
d="M1833 1153q102 0 183.5 -27t137 -74t92.5 -114t53.5 -144.5t16.5 -166.5v-627h-102v621q0 204 -99 321t-303 117q-169 0 -297 -88t-200 -252q6 -47 6 -92v-627h-104v621q0 204 -99 321t-303 117q-169 0 -293.5 -84t-195.5 -242v-733h-105v1112h105v-254q67 135 204 215
t308 80q191 0 305.5 -91t154.5 -249q64 159 209.5 249.5t325.5 90.5z" />
    <glyph glyph-name="n" unicode="n" horiz-adv-x="1605" 
d="M326 0h-105v1112h105v-256q77 140 221 218.5t330 78.5q257 0 388.5 -145t131.5 -387v-621h-105v614q0 215 -107.5 330t-324.5 115q-180 0 -318 -82.5t-216 -247.5v-729z" />
    <glyph glyph-name="o" unicode="o" horiz-adv-x="1595" 
d="M799 -43q-313 0 -489.5 161t-176.5 437t176.5 437t489.5 161q312 0 488.5 -161t176.5 -437t-176.5 -437t-488.5 -161zM799 53q256 0 407.5 130.5t151.5 371.5q0 242 -151.5 373t-407.5 131t-407.5 -131t-151.5 -373q0 -241 151.5 -371.5t407.5 -130.5z" />
    <glyph glyph-name="p" unicode="p" 
d="M887 -41q-189 0 -335.5 76t-225.5 209v-654h-105v1522h105v-244q79 133 225.5 209t335.5 76q284 0 448 -163.5t164 -432.5q0 -270 -164 -434t-448 -164zM864 1059q-179 0 -316.5 -76.5t-221.5 -228.5v-396q84 -152 221.5 -228.5t316.5 -76.5q250 0 389.5 134t139.5 370
q0 234 -140 368t-389 134z" />
    <glyph glyph-name="q" unicode="q" 
d="M745 -41q-285 0 -448.5 163.5t-163.5 434.5q0 269 163.5 432.5t448.5 163.5q187 0 334 -76t228 -209v244h104v-1522h-104v654q-81 -133 -228 -209t-334 -76zM766 1059q-248 0 -387 -134t-139 -368q0 -236 139 -370t387 -134q179 0 317.5 76.5t223.5 228.5v396
q-85 152 -223.5 228.5t-317.5 76.5z" />
    <glyph glyph-name="r" unicode="r" horiz-adv-x="937" 
d="M326 0h-105v1112h105v-293q65 143 224 227t351 84v-94q-199 0 -353.5 -90t-221.5 -260v-686z" />
    <glyph glyph-name="s" unicode="s" horiz-adv-x="1409" 
d="M739 621q131 -11 230 -32.5t177.5 -57.5t119.5 -92t41 -132q0 -152 -151 -251t-423 -99q-196 0 -358.5 65t-272.5 183l72 61q204 -219 561 -219q215 0 341 68.5t126 183.5q0 38 -15 69t-46 54t-71 40t-98.5 30t-120.5 21.5t-144 16.5q-79 7 -142.5 16t-131 24
t-116.5 37.5t-89.5 53t-61.5 73t-21 95.5q0 101 77 176t201.5 111.5t278.5 36.5q166 0 306.5 -53.5t232.5 -138.5l-70 -70q-176 171 -473 174q-78 1 -154.5 -12.5t-143.5 -40t-108.5 -73t-41.5 -105.5q0 -38 17.5 -68.5t52.5 -52t76.5 -37t101 -26t114.5 -17t127 -12.5z" />
    <glyph glyph-name="t" unicode="t" horiz-adv-x="956" 
d="M883 139l41 -76q-148 -104 -312 -104q-91 0 -165.5 32t-122.5 102t-48 167v758h-231v94h231v258h105v-258h534v-94h-534v-744q0 -106 70.5 -163.5t175.5 -57.5q116 0 256 86z" />
    <glyph glyph-name="u" unicode="u" horiz-adv-x="1605" 
d="M1282 1112h104v-1110h-104v256q-77 -141 -221.5 -220t-331.5 -79q-130 0 -230.5 40t-163.5 112t-94.5 168t-31.5 213v620h104v-614q0 -213 108 -328t324 -115q180 0 318.5 81.5t218.5 246.5v729z" />
    <glyph glyph-name="v" unicode="v" horiz-adv-x="1423" 
d="M1366 1112l-598 -1112h-113l-598 1112h119l539 -1003l536 1003h115z" />
    <glyph glyph-name="w" unicode="w" horiz-adv-x="1998" 
d="M1815 1112h106l-428 -1112h-107l-385 993l-391 -993h-106l-426 1112h110l375 -989l385 989h105l385 -989z" />
    <glyph glyph-name="x" unicode="x" horiz-adv-x="1312" 
d="M1249 1112l-524 -553l526 -559h-133l-463 492l-462 -492h-130l527 557l-524 555h133l458 -489l461 489h131z" />
    <glyph glyph-name="y" unicode="y" horiz-adv-x="1433" 
d="M1262 1112h114l-893 -1522h-116l297 492l-607 1030h119l545 -922z" />
    <glyph glyph-name="z" unicode="z" horiz-adv-x="1343" 
d="M1221 1112v-78l-975 -942h999v-94h-1153v78l975 942h-946v94h1100z" />
    </font>
</defs>
</svg>
